Flicka Country Pride (2012) DVDRip XviD-iGNiTiON

[RS.com/BS/EB/RG/FS/Ffat/SF/FG/QS/F4S/MS + 1 Link 700 MB]



IMDB Url:
http://www.imdb.com/title/tt2039339/
Title: Flicka: Country Pride (Video 2012)
Tagline:
Rating: 4.0/10 from 11 users.
PEGI:

Description
Directed by Michael Damian. With Lisa Hartman, Kacey Rohl, Clint Black, Max Lloyd-Jones. Flicka and Toby help out a struggling stable owner and her teenage daughter.

Storyline
When Toby and Flicka are hired at a stable, Kelly, the owner's teenage daughter, quickly bonds with the wild horse. Despite her mother's disapproval, she hopes to break Flicka for an upcoming competition. However with the competition fast approaching, a dishonest rival trainer, and a growing fear they may be forced to sell the stable, Toby must intervene to save the day.
General
Complete name: flicka.country.pride.dvdrip.xvid-Team_WHZ.avi
Format : AVI
Format/Info: Audio Video Interleave
File size: 702 MiB
Duration : 1h 32mn
Overall bit rate mode: Variable
Overall bit rate : 1 065 Kbps

Video
ID : 0
Format : MPEG-4 Visual
Format profile : Advanced Simple@L5
Format settings, BVOP: 3
Format settings, QPel: No
Format settings, GMC : No warppoints
Format settings, Matrix: Default (MPEG)
Codec ID : XVID
Codec ID/Hint: XviD
Duration : 1h 32mn
Bit rate : 924 Kbps
Width: 624 pixels
Height : 352 pixels
Display aspect ratio : 16:9
Frame rate : 23.976 fps
Color space: YUV
Chroma subsampling : 4:2:0
Bit depth: 8 bits
Scan type: Progressive
Compression mode : Lossy
Bits/(Pixel*Frame) : 0.175
Stream size: 609 MiB (87%)
Writing library: XviD 1.2.1 (UTC 2008-12-04)

Audio
ID : 1
Format : MPEG Audio
Format version : Version 1
Format profile : Layer 3
Mode : Joint stereo
Mode extension : MS Stereo
Codec ID : 55
Codec ID/Hint: MP3
Duration : 1h 32mn
Bit rate mode: Variable
Bit rate : 128 Kbps
Nominal bit rate : 135 Kbps
Channel(s) : 2 channels
Sampling rate: 48.0 KHz
Compression mode : Lossy
Stream size: 84.6 MiB (12%)
Alignment: Aligned on interleaves
Interleave, duration : 24 ms (0.58 video frame)
Interleave, preload duration : 191 ms
Title: English
Writing library: LAME3.92
Encoding settings: -m j -V 0 -q 2 -lowpass 16 --abr 135