[align=center]
Justice League Doom (2012) BRrip XviD-nCODE
 PlatinumW.org Sharing Warez Community Justice League Doom (2012) BRrip XviD-nCODE

 PlatinumW.org Sharing Warez Community Justice League Doom (2012) BRrip XviD-nCODE

 Check Links    
http://www.imdb.com/title/tt2027128/



 PlatinumW.org Sharing Warez Community Justice League Doom (2012) BRrip XviD-nCODE

Justice.League.Doom.2012.BRrip.XviD-nCODE

Format : AVI
Format/Info : Audio Video Interleave
File size : 701 MiB
Duration : 1h 16mn
Overall bit rate : 1 275 Kbps

Video
ID : 0
Format : MPEG-4 Visual
Format profile : Advanced Simple@L5
Format settings, BVOP : 2
Format settings, QPel : No
Format settings, GMC : No warppoints
Format settings, Matrix : Default (H.263)
Codec ID : XVID
Codec ID/Hint : XviD
Duration : 1h 16mn
Bit rate : 1 076 Kbps
Width : 656 pixels
Height : 352 pixels
Display aspect ratio : 1.864
Frame rate : 23.976 fps
Color space : YUV
Chroma subsampling : 4:2:0
Bit depth : 8 bits
Scan type : Progressive
Compression mode : Lossy
Bits/(Pixel*Frame) : 0.194
Stream size : 591 MiB (84%)
Writing library : XviD 1.2.1 (UTC 2008-12-04)

Audio
ID : 1
Format : AC-3
Format/Info : Audio Coding 3
Mode extension : CM (complete main)
Codec ID : 2000
Duration : 1h 16mn
Bit rate mode : Constant
Bit rate : 192 Kbps
Channel(s) : 2 channels
Channel positions : Front: L R
Sampling rate : 48.0 KHz
Bit depth : 16 bits
Compression mode : Lossy
Stream size : 106 MiB (15%)
Alignment : Aligned on interleaves
Interleave, duration : 64 ms (1.53 video frames)
Interleave, preload duration : 192 ms
Title : ~ ViSiT nCODE @ WareZ-bb ~


 PlatinumW.org Sharing Warez Community Justice League Doom (2012) BRrip XviD-nCODE

 PlatinumW.org Sharing Warez Community Justice League Doom (2012) BRrip XviD-nCODE
 PlatinumW.org Sharing Warez Community Justice League Doom (2012) BRrip XviD-nCODE
 PlatinumW.org Sharing Warez Community Justice League Doom (2012) BRrip XviD-nCODE




 PlatinumW.org Sharing Warez Community Justice League Doom (2012) BRrip XviD-nCODE




 PlatinumW.org Sharing Warez Community Justice League Doom (2012) BRrip XviD-nCODE
 Check Links    
http://www.filereactor.com/9khp37ziq3ji/mg5.JLD.2012.BRrip.XviD_..avi.html


 PlatinumW.org Sharing Warez Community Justice League Doom (2012) BRrip XviD-nCODE
 Check Links    
http://extabit.com/file/2a10xovatyigq/mg5.JLD.2012.BRrip.XviD_.-.net.avi


 PlatinumW.org Sharing Warez Community Justice League Doom (2012) BRrip XviD-nCODE
 Check Links    
http://www.filefactory.com/file/94lbed3espj/n/mg5.JLD.2012.-.net.XviD_..avi


 PlatinumW.org Sharing Warez Community Justice League Doom (2012) BRrip XviD-nCODE
 Check Links    
http://bitshare.com/files/sdoydm4q/mg5.JLD.2012.BRrip.XviD_.-.net.avi.html


Rapidshare
 Check Links    
https://rapidshare.com/files/1578405498/mg5.JLD.2012.BRrip.XviD_..avi









PLEASE, DON'T JUST

Read More for Free Download Links