Lockout.2012.CAM.Xvid-UnknOwN

File size: 1GiB

Posted Image

:info:

Quote


General

Complete name : Lockout_2012_CAM_Xvid_UnknOwN.avi

Format : AVI

Format/Info : Audio Video Interleave

Format profile : OpenDML

File size : 1.00 GiB

Duration : 1h 29mn

Overall bit rate : 1 601 Kbps

Writing library : MPlayer

Video

ID : 0

Format : MPEG-4 Visual

Format profile : Advanced Simple@L5

Format settings, BVOP : 2

Format settings, QPel : No

Format settings, GMC : No warppoints

Format settings, Matrix : Default (H.263)

Muxing mode : Packed bitstream

Codec ID : XVID

Codec ID/Hint : XviD

Duration : 1h 29mn

Bit rate : 111 Kbps

Width : 700 pixels

Height : 304 pixels

Display aspect ratio : 2.35:1

Frame rate : 29.644 fps

Color space : YUV

Chroma subsampling : 4:2:0

Bit depth : 8 bits

Scan type : Progressive

Compression mode : Lossy

Bits/(Pixel*Frame) : 0.018

Stream size : 71.4 MiB (7%)

Writing library : XviD 64

Audio

ID : 1

Format : MPEG Audio

Codec ID : 55

Codec ID/Hint : MP3

Duration : 1h 29mn

Bit rate : 128 Kbps

Channel(s) : 2 channels

Sampling rate : 44.1 KHz

Compression mode : Lossy

Stream size : 82.1 MiB (8%)

Alignment : Aligned on interleaves

:imdb:

http://www.imdb.com/title/tt1592525/

:screen:

Posted Image

:dw:

Read More for Free Download Links