[CENTER]Margin Call (2011) BRrip XviD-nCODE
[Image: fc77cd74ae.jpg]

[Image: 11a32331ee.gif]


http://www.imdb.com/title/tt1615147/


[Image: 6b40aa4209.gif]

Quote:Margin.Call.2011.BRrip.XviD-nCODE

Format : AVI
Format/Info : Audio Video Interleave
File size : 700 MiB
Duration : 1h 47mn
Overall bit rate : 914 Kbps

Video
ID : 0
Format : MPEG-4 Visual
Format profile : Advanced Simple@L5
Format settings, BVOP : 2
Format settings, QPel : No
Format settings, GMC : No warppoints
Format settings, Matrix : Default (H.263)
Codec ID : XVID
Codec ID/Hint : XviD
Duration : 1h 47mn
Bit rate : 780 Kbps
Width : 624 pixels
Height : 336 pixels
Display aspect ratio : 1.857
Frame rate : 23.976 fps
Color space : YUV
Chroma subsampling : 4:2:0
Bit depth : 8 bits
Scan type : Progressive
Compression mode : Lossy
Bits/(Pixel*Frame) : 0.155
Stream size : 597 MiB (85%)
Writing library : XviD 1.2.1 (UTC 2008-12-04)

Audio
ID : 1
Format : MPEG Audio
Format version : Version 1
Format profile : Layer 3
Mode : Joint stereo
Codec ID : 55
Codec ID/Hint : MP3
Duration : 1h 47mn
Bit rate mode : Constant
Bit rate : 128 Kbps
Channel(s) : 2 channels
Sampling rate : 48.0 KHz
Compression mode : Lossy
Stream size : 98.0 MiB (14%)
Alignment : Aligned on interleaves
Interleave, duration : 167 ms (4.00 video frames)
Interleave, preload duration : 216 ms
Title : ### ViSiT nCODE @ ~spam is good food~ ###
Writing library : LAME3.98r
Encoding settings : -m j -V 4 -q 2 -lowpass 17 -b 128

heres a retail BRrip to take the place of the RC BRrip i posted a couple months back.
small differences like this is 23.976 fps instead of 24fps
and of course better quality than an RC Blueray
saying that the RC was good quality but i cant help myself, OCD i reckon..lol
[Image: 1df63249bd.gif]

[Image: 0e917489cf.png]
[Image: 6d7c695009.png]
[Image: b6efb594fd.png]




[Image: 40f825fd12.png]



Extabit