Men In Black 3 (2012) V2 HD TS XViD AC3-TODE

 PlatinumW.org Sharing Warez Community Men In Black 3 (2012) V2 HD TS XViD AC3-TODE

 PlatinumW.org Sharing Warez Community Men In Black 3 (2012) V2 HD TS XViD AC3-TODE

 Check Links    
 http://www.imdb.com/title/tt1409024/



 PlatinumW.org Sharing Warez Community Men In Black 3 (2012) V2 HD TS XViD AC3-TODE

Country:
USA

Language:
English


Thanks : ADTRG


Format : AVI
Format/Info : Audio Video Interleave
File size : 704 MiB
Duration : 1h 37mn
Overall bit rate : 1 007 Kbps
Writing application : Lavf54.3.100

Video
ID : 0
Format : MPEG-4 Visual
Format profile : Simple@L3
Format settings, BVOP : No
Format settings, QPel : No
Format settings, GMC : No warppoints
Format settings, Matrix : Default (H.263)
Codec ID : XVID
Codec ID/Hint : XviD
Duration : 1h 37mn
Bit rate : 900 Kbps
Width : 640 pixels
Height : 304 pixels
Display aspect ratio : 2.045
Frame rate : 23.976 fps
Color space : YUV
Chroma subsampling : 4:2:0
Bit depth : 8 bits
Scan type : Progressive
Compression mode : Lossy
Bits/(Pixel*Frame) : 0.193
Stream size : 630 MiB (89%)
Writing library : XviD 64

Audio
ID : 1
Format : AC-3
Format/Info : Audio Coding 3
Mode extension : CM (complete main)
Format settings, Endianness : Big
Codec ID : 2000
Duration : 1h 37mn
Bit rate mode : Constant
Bit rate : 96.0 Kbps
Channel(s) : 2 channels
Channel positions : Front: L R
Sampling rate : 48.0 KHz
Bit depth : 16 bits
Compression mode : Lossy
Stream size : 67.2 MiB (10%)
Alignment : Aligned on interleaves
Interleave, duration : 32 ms (0.77 video frame)


 PlatinumW.org Sharing Warez Community Men In Black 3 (2012) V2 HD TS XViD AC3-TODE

 PlatinumW.org Sharing Warez Community Men In Black 3 (2012) V2 HD TS XViD AC3-TODE
 PlatinumW.org Sharing Warez Community Men In Black 3 (2012) V2 HD TS XViD AC3-TODE
 PlatinumW.org Sharing Warez Community Men In Black 3 (2012) V2 HD TS XViD AC3-TODE




 PlatinumW.org Sharing Warez Community Men In Black 3 (2012) V2 HD TS XViD AC3-TODE


Ufile
 Check Links    
http://ufile.eu/3jwbhhk64rbj


 PlatinumW.org Sharing Warez Community Men In Black 3 (2012) V2 HD TS XViD AC3-TODE
 Check Links    
http://www.filereactor.com/bmizusnnn05k/mir3.wbf.rar.html


 PlatinumW.org Sharing Warez Community Men In Black 3 (2012) V2 HD TS XViD AC3-TODE
 Check Links    
http://extabit.com/file/28dw82h5w37p3/mir3.wbf.rar


 PlatinumW.org Sharing Warez Community Men In Black 3 (2012) V2 HD TS XViD AC3-TODE
 Check Links    
http://www.filefactory.com/file/3i8esfjvf2tj/n/mir3.wbf.rar


 PlatinumW.org Sharing Warez Community Men In Black 3 (2012) V2 HD TS XViD AC3-TODE
 Check Links    
http://bitshare.com/files/57tbaur8/mir3.wbf.rar.html


Freakshare
 Check Links    
http://freakshare.com/files/b6nbjvi6/mir3.wbf.rar.html


Cloudnator
 Check Links    
http://www.cloudnator.com/files/1d657755/mir3.wbf.rar


Rapidshare
 Check Links    
https://rapidshare.com/files/1808956804/mir3.wbf.rar



PLEASE, DON'T JUST

Read More for Free Download Links