[CENTER]The Muppets (2011) BRrip XViD-nCODE
[Image: themuppets2011hdwallpap.jpg]

[Image: 11a32331ee.gif]


http://www.imdb.com/title/tt1204342/


[Image: 6b40aa4209.gif]

Quote: The.Muppets.2011.BRrip.XViD-nCODE

Format : AVI
Format/Info : Audio Video Interleave
File size : 699 MiB
Duration : 1h 42mn
Overall bit rate : 951 Kbps

Video
ID : 0
Format : MPEG-4 Visual
Format profile : Advanced Simple@L5
Format settings, BVOP : 2
Format settings, QPel : No
Format settings, GMC : No warppoints
Format settings, Matrix : Default (H.263)
Codec ID : XVID
Codec ID/Hint : XviD
Duration : 1h 42mn
Bit rate : 817 Kbps
Width : 624 pixels
Height : 336 pixels
Display aspect ratio : 1.857
Frame rate : 23.976 fps
Color space : YUV
Chroma subsampling : 4:2:0
Bit depth : 8 bits
Scan type : Progressive
Compression mode : Lossy
Bits/(Pixel*Frame) : 0.163
Stream size : 600 MiB (86%)
Writing library : XviD 1.2.1 (UTC 2008-12-04)

Audio
ID : 1
Format : MPEG Audio
Format version : Version 1
Format profile : Layer 3
Mode : Joint stereo
Mode extension : MS Stereo
Codec ID : 55
Codec ID/Hint : MP3
Duration : 1h 42mn
Bit rate mode : Constant
Bit rate : 128 Kbps
Channel(s) : 2 channels
Sampling rate : 48.0 KHz
Compression mode : Lossy
Stream size : 94.1 MiB (13%)
Alignment : Aligned on interleaves
Interleave, duration : 167 ms (4.00 video frames)
Interleave, preload duration : 216 ms
Title : ~ nCODE ~ ~spam is good food~ ~
[Image: 1df63249bd.gif]

[Image: 64cce4ac9d.png]
[Image: 957b3e0add.png]
[Image: d01802ec48.png]




[Image: 40f825fd12.png]




[Image: c422f593db.png]