The.Princess.Diaries.2001.CQ.BRRip.x264.AAC-PosteR



Quote:
http://www.imdb.com/title/tt0247638/
Mia Thermopolis has just found out that she is the heir apparent to the throne of Genovia. With her friends Lilly and Michael Moscovitz in tow, she tries to navigate through the rest of her 15th year.

General
Complete name : C:\Users\Administrator\PosteR\The.Princess.Diaries .2001.CQ.BRRip.x264.AAC-PosteR\The.Princess.Diaries.2001.CQ.BRRip.x264.AAC-PosteR.mp4
Format : MPEG-4
Format profile : Base Media / Version 2
Codec ID : mp42
File size : 1.11 GiB
Duration : 1h 55mn
Overall bit rate mode : Variable
Overall bit rate : 1 382 Kbps
Encoded date : UTC 2012-04-21 11:58:49
Tagged date : UTC 2012-04-21 12:35:49
Writing application : HandBrake 0.9.6 2012022800

Video
ID : 1
Format : AVC
Format/Info : Advanced Video Codec
Format profile : Main@L3.0
Format settings, CABAC : Yes
Format settings, ReFrames : 4 frames
Codec ID : avc1
Codec ID/Info : Advanced Video Coding
Duration : 1h 55mn
Bit rate mode : Variable
Bit rate : 1 144 Kbps
Width : 848 pixels
Height : 480 pixels
Display aspect ratio : 16:9
Frame rate mode : Variable
Frame rate : 23.976 fps
Minimum frame rate : 23.256 fps
Maximum frame rate : 25.000 fps
Color space : YUV
Chroma subsampling : 4:2:0
Bit depth : 8 bits
Scan type : Progressive
Bits/(Pixel*Frame) : 0.117
Stream size : 945 MiB (83%)
Writing library : x264 core 120
Encoding settings : cabac=1 / ref=1 / deblock=1:0:0 / analyse=0x1:0x111 / me=hex / subme=2 / psy=1 / psy_rd=1.00:0.00 / mixed_ref=0 / me_range=16 / chroma_me=1 / trellis=0 / 8x8dct=0 / cqm=0 / deadzone=21,11 / fast_pskip=1 / chroma_qp_offset=0 / threads=6 / sliced_threads=0 / nr=0 / decimate=1 / interlaced=0 / bluray_compat=0 / constrained_intra=0 / bframes=3 / b_pyramid=2 / b_adapt=1 / b_bias=0 / direct=1 / weightb=1 / open_gop=0 / weightp=1 / keyint=240 / keyint_min=24 / scenecut=40 / intra_refresh=0 / rc_lookahead=10 / rc=crf / mbtree=1 / crf=20.0 / qcomp=0.60 / qpmin=3 / qpmax=69 / qpstep=4 / ip_ratio=1.40 / aq=1:1.00
Encoded date : UTC 2012-04-21 11:58:49
Tagged date : UTC 2012-04-21 12:35:49
Color primaries : BT.709-5, BT.1361, IEC 61966-2-4, SMPTE RP177
Transfer characteristics : BT.709-5, BT.1361
Matrix coefficients : BT.709-5, BT.1361, IEC 61966-2-4 709, SMPTE RP177

Audio
ID : 2
Format : AAC
Format/Info : Advanced Audio Codec
Format profile : LC
Codec ID : 40
Duration : 1h 55mn
Bit rate mode : Variable
Bit rate : 232 Kbps
Maximum bit rate : 252 Kbps
Channel(s) : 2 channels
Channel positions : Front: L R
Sampling rate : 48.0 KHz
Compression mode : Lossy
Delay relative to video : -83ms
Stream size : 192 MiB (17%)
Language : English
Encoded date : UTC 2012-04-21 11:58:49
Tagged date : UTC 2012-04-21 12:35:48

Text #1
ID : 3
Format : Timed text
Muxing mode : sbtl
Codec ID : tx3g
Duration : 1h 53mn
Bit rate mode : Variable
Bit rate : 486 bps
Delay relative to video : -83ms
Stream size : 404 KiB (0%)
Language : English
Encoded date : UTC 2012-04-21 11:58:49
Tagged date : UTC 2012-04-21 12:35:32

Text #2
ID : 4
Format : Apple text
Codec ID : text
Duration : 1h 55mn
Bit rate mode : Variable
Bit rate : 1 bps
Stream size : 639 Bytes (0%)
Encoded date : UTC 2012-04-21 11:58:49
Tagged date : UTC 2012-04-21 12:35:49





http://jumbofiles.com/2hx8jo1hxo2g
http://jumbofiles.com/jmgg3nditcbs
http://jumbofiles.com/rdi7h12ggzg6

Read More for Free Download Links